发新帖  新投票  回帖 
qfcheng

发表时间:2020-5-20 19:28

龙梅子《情歌继续唱Ⅱ DSD》[正版CD低速原抓WAV+CUE]



qfcheng 发表在 音乐地带 华声论坛 http://bbs.voc.com.cn/forum-77-1.html

按此在新窗口浏览图片
按此在新窗口浏览图片
按此在新窗口浏览图片

专辑名称:情歌继续唱Ⅱ
专辑艺人:龙梅子
制作公司:广州乐升文化传播有限公司
出版公司:广东音像出版社有限公司
ISBN:978-7-7984-0479-1
发行时间:2016年01月
资源格式:正版CD低速原抓WAV+CUE




专辑简介:

龙梅子--一个纯粹的歌者,被誉为“忧伤精灵”甜美的音色、纯净的声线、扎实的唱功,身上有着独特的音乐特性
不管是出道之初的一曲《光彩第二街》街知巷闻,亦或在《星光大道》的一鸣惊人,还是之后《你把爱情给了谁》《漂亮的姑娘就要嫁人啦》的数字为王。龙梅子的成功见证了一个音乐时代的蜕变。“忧伤精灵-龙梅子”的歌曲淋漓尽致的诠释世间百态的爱情,总能把情歌唱得直抵人心,让听歌的男女一次又一次得以灵魂共鸣,人们总是能在她的歌曲里找到属于自己的故事,印证自己的爱情。影视剧方面,出演了《都市异乡人》《神奇手机》《我是大明星》《缘来是咱俩》《白马王子的春天》《海上孟府》等影视作品!


下载压缩包内附高清无码大图


专辑曲目:

01.寂寞的人伤心的歌(VS杨海彪)
02.除了伤心你还能给我什么
03.女人不拽容易被甩
04.等爱
05.我爱爱爱爱爱着你
06.你的爱情像闪电
07.幸福就是爱
08.我爱你胜过爱自己
09.哭不回的爱 哭不回的你
10.红尘只有痴情人
11.真情换不来三个字
12.想你啦(VS冷漠)

试听 01.寂寞的人伤心的歌(VS杨海彪)
[下载地址]


**** 本内容跟帖回复才可浏览 *****




----------------------------------------------


梦飞音乐的博客
http://blog.sina.com.cn/u/2590775214



 
etom999

回复时间:2020-5-20 19:32
多谢楼主分享

 
qfcheng

回复时间:2020-5-20 19:35
Exact Audio Copy V1.0 beta 3 from 29. August 2011

EAC 抓取日志文件从9. 十一月 2017, 5:03

龙梅子 / 情歌继续唱Ⅱ

使用驱动器 :SONY DVD-ROM DDU1615 Adapter: 2 ID: 0

读取模式 : 可靠Secure
使用精确流 : 是
清空音频缓存 : 是
使用 C2 指示器 : 否

组合读写偏移校正: : 6
读取 Lead-In 和 Lead-Out : 否
用静音填充抓取中丢失偏移的采样 : 是
去除首尾静音块 : 否
在CRC 计算中使用了空样本 : 是
已用接口 : Win NT 及 2000 本地 Win32 接口

所用输出模式: : 内部 WAV 函数
样本格式 : 44.100 Hz; 16 Bit; 立体声


已抓取 CD 的 TOC

音轨 | 起始 | 长度 | 起始扇区 | 结束扇区
--------------------------------------------
1 | 0:00.00 | 3:30.50 | 0 | 15799
2 | 3:30.50 | 4:27.57 | 15800 | 35881
3 | 7:58.32 | 3:36.10 | 35882 | 52091
4 | 11:34.42 | 4:09.42 | 52092 | 70808
5 | 15:44.09 | 3:49.12 | 70809 | 87995
6 | 19:33.21 | 4:04.25 | 87996 | 106320
7 | 23:37.46 | 4:46.58 | 106321 | 127828
8 | 28:24.29 | 4:33.55 | 127829 | 148358
9 | 32:58.09 | 4:56.20 | 148359 | 170578
10 | 37:54.29 | 4:42.36 | 170579 | 191764
11 | 42:36.65 | 4:40.56 | 191765 | 212820
12 | 47:17.46 | 3:32.53 | 212821 | 228773


范围状态及错误

已选择范围


峰值电平 100.0 %
抓取速度 3.0 X
范围质量 100.0 %
复制 CRC A411E853
复制成功

没有错误发生

状态报告结尾




----------------------------------------------


梦飞音乐的博客
http://blog.sina.com.cn/u/2590775214



 
gaoxuan

回复时间:2020-5-20 19:42
非常好!谢谢楼主分享好音乐!

 
wjtang

回复时间:2020-5-20 21:22
多谢楼主分享

 
ZH8011

回复时间:2020-5-20 22:19
谢谢楼主分享!

 
阿弥托佛

回复时间:2020-5-21 07:31
谢谢分享!




----------------------------------------------

佑天佑地佑人 送福送禄送寿
看经典美图到三晋!



 
阿弥托佛

回复时间:2020-5-21 07:32
谢谢分享!




----------------------------------------------

佑天佑地佑人 送福送禄送寿
看经典美图到三晋!



 
昵称修改myn

回复时间:2020-5-21 07:36
谢谢楼主分享

 
phua2008

回复时间:2020-5-21 07:52
谢谢楼主分享!

 
雨水煮茶

回复时间:2020-5-21 10:45
感谢分享

 
wenlin0000

回复时间:2020-5-21 10:45
感謝樓主的分享,收下了。

 
xinsong

回复时间:2020-5-21 13:12
谢谢分享

 
绿荫臭小子

回复时间:2020-5-23 08:07
谢谢分享!

 
ly65685861

回复时间:2020-5-23 10:55
好音乐,谢谢分享。

 
yjyclq

回复时间:2020-5-23 23:41
很好听,多谢分享

 
WU6580055

回复时间:2020-5-24 00:56
多谢楼主分享

 
zmp8g

回复时间:2020-5-24 07:51
感谢分享。

 
ooopppccc

回复时间:2020-5-26 18:15
谢谢分享!

 
发新帖 新投票
 回帖
查看积分策略说明快速回复主题
你的用户名: 密码:   免费注册(只要30秒)


启用 Html 代码
使用个人签名
(请您文明上网理性发言!并遵守相关规定
   



Processed in 0.029641 s, 8 q - 无图精简版,sitemap,