发新帖  新投票  回帖 
qfcheng

发表时间:2020-5-26 20:58

群星《一听销魂 十大粤语对唱》[正版CD低速原抓WAV+CUE]



qfcheng 发表在 音乐地带 华声论坛 http://bbs.voc.com.cn/forum-77-1.html

按此在新窗口浏览图片
按此在新窗口浏览图片
按此在新窗口浏览图片

专辑名称:一听销魂 十大粤语对唱
专辑艺人:群星
发行公司:香港丽声唱片
出版公司:珠影白天鹅音像出版社
I S R C: CN-F23-09-380-00/A.J6
发行时间:2017年
资源类型:正版CD低速原抓WAV+CUE



专辑简介:


人声的凝聚感相当好,感情丰富的演唱极具撼人的感染力!极品流行发烧人声测试,无与伦比的极致人声,让心灵无限释放;音质、解像度、音量感、透明感均优于普通CD



下载压缩包内附高清无码大图


专辑曲目:


01 零时十分
02 再见亦是朋友
03 是雨是泪
04 此情可待
05 Because I Love You
06 风的季节
07 美中不足
08 问
09 晚秋
10 爱得太迟
11 会过去的
12 今夜情为证
13 我要走天涯

试听 02再见亦是朋友
[下载地址]


**** 本内容跟帖回复才可浏览 *****

本帖助威记录

刘sx琦锋电子 +1
好听
2020-06-13 20:43:10
绿林好汉2018 +1
看了楼主的帖,神马都是浮云
2020-05-26 22:03:21
总计:魅力2点 助威2查看所有助威>>



----------------------------------------------


梦飞音乐的博客
http://blog.sina.com.cn/u/2590775214



 
wjtang

回复时间:2020-5-26 21:13
谢谢楼主的沙发了。

 
qfcheng

回复时间:2020-5-26 21:19
Exact Audio Copy V1.3 from 2. September 2016

EAC 抓取日志文件从25. 十月 2017, 17:28

群星 / 一听销魂十大粤语对唱

使用驱动器 :HL-DT-STDVD+-RW GH50N Adapter: 1 ID: 0

读取模式 : 可靠Secure
使用精确流 : 是
清空音频缓存 : 否
使用 C2 指示器 : 是

组合读写偏移校正: : 0
读取 Lead-In 和 Lead-Out : 否
用静音填充抓取中丢失偏移的采样 : 是
去除首尾静音块 : 否
在CRC 计算中使用了空样本 : 是
已用接口 : Win NT 及 2000 本地 Win32 接口

所用输出模式: : 内部 WAV 函数
样本格式 : 44.100 Hz; 16 Bit; 立体声


已抓取 CD 的 TOC

音轨 | 起始 | 长度 | 起始扇区 | 结束扇区
--------------------------------------------
1 | 0:00.00 | 4:05.04 | 0 | 18378
2 | 4:05.04 | 4:15.67 | 18379 | 37570
3 | 8:20.71 | 4:36.70 | 37571 | 58340
4 | 12:57.66 | 3:41.05 | 58341 | 74920
5 | 16:38.71 | 4:16.27 | 74921 | 94147
6 | 20:55.23 | 4:13.01 | 94148 | 113123
7 | 25:08.24 | 4:45.18 | 113124 | 134516
8 | 29:53.42 | 4:13.30 | 134517 | 153521
9 | 34:06.72 | 4:31.02 | 153522 | 173848
10 | 38:37.74 | 4:10.25 | 173849 | 192623
11 | 42:48.24 | 4:03.39 | 192624 | 210887
12 | 46:51.63 | 4:41.08 | 210888 | 231970
13 | 51:32.71 | 4:36.35 | 231971 | 252705


范围状态及错误

已选择范围

文件名 F:\炫音音乐论坛原抓上传区\群星 - 一听销魂十大粤语对唱.wav

峰值电平 98.8 %
抓取速度 3.4 X
范围质量 99.9 %
复制 CRC 841219D3
复制成功

没有错误发生

状态报告结尾




----------------------------------------------


梦飞音乐的博客
http://blog.sina.com.cn/u/2590775214



 
ucucok

回复时间:2020-5-26 21:29
谢谢分享

 
ztm99

回复时间:2020-5-26 21:34
谢谢分享

 
iepux

回复时间:2020-5-26 21:59

 
绿林好汉2018

回复时间:2020-5-26 22:05

 
WWJJPP

回复时间:2020-5-26 22:16
xiexe fenxiang

 
喜欢快乐2014

回复时间:2020-5-26 22:36
谢谢分享。

 
gaoxuan

回复时间:2020-5-26 23:34
音质不错,喜欢,非常感谢,辛苦了!!

 
52007qq

回复时间:2020-5-26 23:35
谢谢分享

 
LX13531

回复时间:2020-5-27 00:43
谢谢推介

 
wutianxiangtx

回复时间:2020-5-27 05:47
谢谢楼主的沙发了。

 
一生不变2019

回复时间:2020-5-27 06:55

 
阿弥托佛

回复时间:2020-5-27 07:21
谢谢分享!




----------------------------------------------

佑天佑地佑人 送福送禄送寿
看经典美图到三晋!



 
阿弥托佛

回复时间:2020-5-27 07:21
谢谢分享!




----------------------------------------------

佑天佑地佑人 送福送禄送寿
看经典美图到三晋!



 
xyzero

回复时间:2020-5-27 07:43
感谢楼主分享

 
txtp1990

回复时间:2020-5-27 07:47
喜欢粤语的韵律!

 
红色石头2018

回复时间:2020-5-27 07:48
谢谢分享

 
wenlin0000

回复时间:2020-5-27 10:37
感謝樓主的分享,收下了。

 
发新帖 新投票
 回帖
查看积分策略说明快速回复主题
你的用户名: 密码:   免费注册(只要30秒)


启用 Html 代码
使用个人签名
(请您文明上网理性发言!并遵守相关规定
   



Processed in 0.027431 s, 8 q - 无图精简版,sitemap,