发新帖  新投票  回帖 
qfcheng

发表时间:2020-5-26 21:34

胡又天《她说 HQCDⅡ》[正版CD低速原抓WAV+CUE]



qfcheng 发表在 音乐地带 华声论坛 http://bbs.voc.com.cn/forum-77-1.html

按此在新窗口浏览图片
按此在新窗口浏览图片
按此在新窗口浏览图片

专辑名称:她说 HQCDⅡ
专辑艺人:胡又天
发行公司:天艺文化传播有限公司
发行时间:2015年12月
资源格式:正版CD低速原抓WAV+CUE




专辑简介:


细腻如她,情深如她,这轻声细语中震撼心弦的力量。胡又天的声线细腻而富有韧性,轻柔的女声包含着怎样的一种力量,让人如此沉醉,静下心来,听她说。
高谈阔论不及她的轻声细语,黄钟大吕不及她的娓娓道来。听她说,坚韧的声音充满力量,听她说,细腻的声线触动心弦。她说,用她的歌声,述说着生命的爱与痛,光与暗。或催人向上,或痛彻心扉。在呢喃间,字字句句,无不包含着一颗柔情的真心,一份真挚的情感,一段率性的告白。

HQCDII火热上市!品味·身份献给最挑剔的耳朵!
集HQCD和AQCD之所长,更忠实更接近原盘音质,引领音响界进入CD高清音质时代!



下载压缩包内附高清无码大图


专辑曲目:

01.存在
02.如果有来生
03.相见恨晚
04.当爱已成往事
05.好久不见
06.祝我幸福
07.遗憾
08.她说
09.别在伤口撒盐
10.洋葱
11.心动
12.灯塔

试听 01存在
[下载地址]


**** 本内容跟帖回复才可浏览 *****




----------------------------------------------


梦飞音乐的博客
http://blog.sina.com.cn/u/2590775214



 
qfcheng

回复时间:2020-5-26 21:36
Exact Audio Copy V1.0 beta 3 from 29. August 2011

EAC 抓取日志文件从21. 三月 2016, 2:31

胡又天 / 她说HQCDⅡ

使用驱动器 :SONY DVD-ROM DDU1615 Adapter: 2 ID: 0

读取模式 : 可靠Secure
使用精确流 : 是
清空音频缓存 : 是
使用 C2 指示器 : 否

组合读写偏移校正: : 6
读取 Lead-In 和 Lead-Out : 否
用静音填充抓取中丢失偏移的采样 : 是
去除首尾静音块 : 否
在CRC 计算中使用了空样本 : 是
已用接口 : Win NT 及 2000 本地 Win32 接口

所用输出模式: : 内部 WAV 函数
样本格式 : 44.100 Hz; 16 Bit; 立体声


已抓取 CD 的 TOC

音轨 | 起始 | 长度 | 起始扇区 | 结束扇区
--------------------------------------------
1 | 0:00.00 | 4:45.19 | 0 | 21393
2 | 4:45.19 | 4:05.51 | 21394 | 39819
3 | 8:50.70 | 4:20.21 | 39820 | 59340
4 | 13:11.16 | 5:05.16 | 59341 | 82231
5 | 18:16.32 | 4:30.26 | 82232 | 102507
6 | 22:46.58 | 4:26.34 | 102508 | 122491
7 | 27:13.17 | 3:36.54 | 122492 | 138745
8 | 30:49.71 | 5:09.74 | 138746 | 161994
9 | 35:59.70 | 5:28.34 | 161995 | 186628
10 | 41:28.29 | 4:44.63 | 186629 | 207991
11 | 46:13.17 | 3:27.00 | 207992 | 223516
12 | 49:40.17 | 4:03.06 | 223517 | 241747


范围状态及错误

已选择范围

文件名 F:\炫音音乐论坛原抓上传区\胡又天 她说HQCDⅡ\CDImage.wav

峰值电平 100.0 %
抓取速度 3.0 X
范围质量 100.0 %
复制 CRC DAB73356
复制成功

没有错误发生

状态报告结尾




----------------------------------------------


梦飞音乐的博客
http://blog.sina.com.cn/u/2590775214



 
zbfmn

回复时间:2020-5-26 21:39
感谢楼主分享

 
MCTO_15u3f3qia

回复时间:2020-5-26 23:02
感谢楼主分享

 
LX13531

回复时间:2020-5-26 23:12
谢谢推介此张HQCDⅡ之作

 
wjtang

回复时间:2020-5-26 23:32
感谢楼主分享

 
gaoxuan

回复时间:2020-5-26 23:35
真不错,下来慢慢听,谢谢楼主分享!

 
秋天阳光

回复时间:2020-5-27 01:51
支持一下,感谢分享。

 
greatsai

回复时间:2020-5-27 05:51
感谢分享

 
海上天马行空

回复时间:2020-5-27 07:14
多谢楼主。

 
阿弥托佛

回复时间:2020-5-27 07:48
谢谢分享!




----------------------------------------------

佑天佑地佑人 送福送禄送寿
看经典美图到三晋!



 
zqlrm

回复时间:2020-5-27 10:23
感谢楼主分享

 
960317

回复时间:2020-5-27 16:37
感谢楼主分享

 
etom999

回复时间:2020-5-27 17:55
谢谢分享...

 
wutianxiangtx

回复时间:2020-5-27 19:24
感谢楼主分享

 
hdj0053

回复时间:2020-5-27 19:54
谢谢分享!

 
stzljm

回复时间:2020-5-27 20:30
感谢楼主分享

 
看淡人生xwyn

回复时间:2020-5-27 20:58
感谢楼主分享

 
ooopppccc

回复时间:2020-5-27 21:01
感谢楼主分享

 
ooopppccc

回复时间:2020-5-27 21:02
谢谢分享!

 
发新帖 新投票
 回帖
查看积分策略说明快速回复主题
你的用户名: 密码:   免费注册(只要30秒)


启用 Html 代码
使用个人签名
(请您文明上网理性发言!并遵守相关规定
   



Processed in 0.022691 s, 8 q - 无图精简版,sitemap,