发新帖  新投票  回帖 
梦回云阳

发表时间:2020-7-4 16:10

【梦回云阳与您有约】天使女伶·美丽人生【WAV+CUE/百度网盘】



梦回云阳 发表在 音乐地带 华声论坛 http://bbs.voc.com.cn/forum-77-1.html










**** 本内容跟帖回复才可浏览 *****





----------------------------------------------
友情提醒:下载测试资源存放于免费网盘,不保证资源的长期有效;若有任何一方主张版权,请各管管或版版直接删除本帖,不用任何形式的通知我本人,谢谢。

华声论坛 影音帝国 官方QQ群
影视时空|音乐地带 QQ群:140288348 128111319 42933722
音乐快递QQ群:338549863 原声地带QQ群:344590352
高品质单曲QQ群:116060792 心情音乐QQ群:154659931
心情吟诵QQ群:190584521 音乐播放器QQ群:206520165
 
梦回云阳

回复时间:2020-7-4 16:10

专辑名称:天使女伶·美丽人生
专辑艺人:群星
发行时间:2005
资源格式:WAV+CUE
专辑简介:
曼哈顿唱片,凯尔特女怜金曲专辑。


专辑曲目
01.夏日最后的玫瑰
02.这可能是
03.Isle Of Inisfree
04.丹尼男孩
05.一个世界
06.万福玛丽亚
07.给我一首歌
08.Siuil A Run
09.奥里诺科河
10.总有一天
11.她穿越公平
12.在幻想生
13.蝴蝶
14.哈利的游戏
15.The Soft Goodbye
16.你鼓舞了我
17.The Ashoken Farewe
18.有钱的寡妇





----------------------------------------------
友情提醒:下载测试资源存放于免费网盘,不保证资源的长期有效;若有任何一方主张版权,请各管管或版版直接删除本帖,不用任何形式的通知我本人,谢谢。

华声论坛 影音帝国 官方QQ群
影视时空|音乐地带 QQ群:140288348 128111319 42933722
音乐快递QQ群:338549863 原声地带QQ群:344590352
高品质单曲QQ群:116060792 心情音乐QQ群:154659931
心情吟诵QQ群:190584521 音乐播放器QQ群:206520165
 
梦回云阳

回复时间:2020-7-4 16:11

按此在新窗口浏览图片





----------------------------------------------
友情提醒:下载测试资源存放于免费网盘,不保证资源的长期有效;若有任何一方主张版权,请各管管或版版直接删除本帖,不用任何形式的通知我本人,谢谢。

华声论坛 影音帝国 官方QQ群
影视时空|音乐地带 QQ群:140288348 128111319 42933722
音乐快递QQ群:338549863 原声地带QQ群:344590352
高品质单曲QQ群:116060792 心情音乐QQ群:154659931
心情吟诵QQ群:190584521 音乐播放器QQ群:206520165
 
梦回云阳

回复时间:2020-7-4 16:11

按此在新窗口浏览图片





----------------------------------------------
友情提醒:下载测试资源存放于免费网盘,不保证资源的长期有效;若有任何一方主张版权,请各管管或版版直接删除本帖,不用任何形式的通知我本人,谢谢。

华声论坛 影音帝国 官方QQ群
影视时空|音乐地带 QQ群:140288348 128111319 42933722
音乐快递QQ群:338549863 原声地带QQ群:344590352
高品质单曲QQ群:116060792 心情音乐QQ群:154659931
心情吟诵QQ群:190584521 音乐播放器QQ群:206520165
 
梦回云阳

回复时间:2020-7-4 16:12

抓轨前检测

按此在新窗口浏览图片


按此在新窗口浏览图片


按此在新窗口浏览图片





----------------------------------------------
友情提醒:下载测试资源存放于免费网盘,不保证资源的长期有效;若有任何一方主张版权,请各管管或版版直接删除本帖,不用任何形式的通知我本人,谢谢。

华声论坛 影音帝国 官方QQ群
影视时空|音乐地带 QQ群:140288348 128111319 42933722
音乐快递QQ群:338549863 原声地带QQ群:344590352
高品质单曲QQ群:116060792 心情音乐QQ群:154659931
心情吟诵QQ群:190584521 音乐播放器QQ群:206520165
 
梦回云阳

回复时间:2020-7-4 16:12
EAC 抓取日志文件

Exact Audio Copy V0.99 prebeta 4 from 23. January 2008

EAC 抓取日志文件从4. 七月 2020, 11:17

群星 / 天使女伶·美丽人生

使用驱动器 :MATSHITADVD-RAM UJ8E0 Adapter: 1 ID: 0

读取模式 : 暴发

读取偏移校正 : 0
读取 Lead-In 和 Lead-Out : 否
用静音填充抓取中丢失偏移的采样 : 是
去除首尾静音块 : 否
在 CRC 计算中使用了空样本 : 否
已用接口 : Win NT 及 2000 本地 Win32 接口

所用输出格式 : 内部 WAV 函数
样本格式 : 44.100 Hz;16 Bit;立体声


被抓轨 CD 的 TOC

音轨 | 开始 | 长度 | 起始扇区 | 结尾扇区
--------------------------------------------------
1 | 0:00.00 | 4:24.03 | 0 | 19802
2 | 4:24.03 | 3:49.64 | 19803 | 37041
3 | 8:13.67 | 3:30.36 | 37042 | 52827
4 | 11:44.28 | 3:28.35 | 52828 | 68462
5 | 15:12.63 | 3:52.00 | 68463 | 85862
6 | 19:04.63 | 2:58.08 | 85863 | 99220
7 | 22:02.71 | 4:25.38 | 99221 | 119133
8 | 26:28.34 | 3:18.71 | 119134 | 134054
9 | 29:47.30 | 3:34.30 | 134055 | 150134
10 | 33:21.60 | 4:24.22 | 150135 | 169956
11 | 37:46.07 | 3:32.70 | 169957 | 185926
12 | 41:19.02 | 3:44.28 | 185927 | 202754
13 | 45:03.30 | 3:04.18 | 202755 | 216572
14 | 48:07.48 | 2:34.26 | 216573 | 228148
15 | 50:41.74 | 4:01.10 | 228149 | 246233
16 | 54:43.09 | 4:36.11 | 246234 | 266944
17 | 59:19.20 | 4:12.15 | 266945 | 285859
18 | 63:31.35 | 2:13.19 | 285860 | 295853


范围状态及错误

已选择范围

文件名 F:\音频抓轨\群星 - 天使女伶·美丽人生.wav

计时问题 0:21:18
计时问题 0:22:48

峰值电平 98.8 %
复制 CRC 781233E8
复制结束

没有错误发生

状态报告结尾




----------------------------------------------
友情提醒:下载测试资源存放于免费网盘,不保证资源的长期有效;若有任何一方主张版权,请各管管或版版直接删除本帖,不用任何形式的通知我本人,谢谢。

华声论坛 影音帝国 官方QQ群
影视时空|音乐地带 QQ群:140288348 128111319 42933722
音乐快递QQ群:338549863 原声地带QQ群:344590352
高品质单曲QQ群:116060792 心情音乐QQ群:154659931
心情吟诵QQ群:190584521 音乐播放器QQ群:206520165
 
梦回云阳

回复时间:2020-7-4 16:13
所有音乐仅供测试及试听,音乐版权归原唱片公司所有,任何人不得用于商业用途!




----------------------------------------------
友情提醒:下载测试资源存放于免费网盘,不保证资源的长期有效;若有任何一方主张版权,请各管管或版版直接删除本帖,不用任何形式的通知我本人,谢谢。

华声论坛 影音帝国 官方QQ群
影视时空|音乐地带 QQ群:140288348 128111319 42933722
音乐快递QQ群:338549863 原声地带QQ群:344590352
高品质单曲QQ群:116060792 心情音乐QQ群:154659931
心情吟诵QQ群:190584521 音乐播放器QQ群:206520165
 
飞天海盗

回复时间:2020-7-4 16:36
谢谢分享,非常好听

 
wzhhui0913

回复时间:2020-7-4 16:46
谢谢分享!!!

 
yycn21

回复时间:2020-7-4 17:09
谢谢分享!

 
雨水煮茶

回复时间:2020-7-4 17:16
感谢分享

 
mimud

回复时间:2020-7-4 17:19
非常感谢你的分享,祝你幸福!

 
chbsnnzl

回复时间:2020-7-4 17:28
感谢楼主分享

 
有法无天?

回复时间:2020-7-4 18:20
谢谢分享

 
LX13531

回复时间:2020-7-5 01:50
谢谢推介女怜金曲专辑

 
阿弥托佛

回复时间:2020-7-5 08:13
谢谢分享!




----------------------------------------------

佑天佑地佑人 送福送禄送寿
看经典美图到三晋!



 
阿弥托佛

回复时间:2020-7-5 08:13
谢谢分享!




----------------------------------------------

佑天佑地佑人 送福送禄送寿
看经典美图到三晋!



 
水中花333ABC

回复时间:2020-7-7 09:07
谢谢分享

 
胜地高

回复时间:2020-7-7 16:29
谢谢,辛苦了

 
商洛阳春

回复时间:2020-7-7 16:42
谢谢分享

 
发新帖 新投票
 回帖
查看积分策略说明快速回复主题
你的用户名: 密码:   免费注册(只要30秒)


启用 Html 代码
使用个人签名
(请您文明上网理性发言!并遵守相关规定
   



Processed in 0.028853 s, 8 q - 无图精简版,sitemap,