发新帖  新投票  回帖 
qfcheng

发表时间:2020-7-25 22:51

谭艳《爱别离 DSD》[正版CD低速原抓WAV+CUE]



qfcheng 发表在 音乐地带 华声论坛 http://bbs.voc.com.cn/forum-77-1.html

按此在新窗口浏览图片
按此在新窗口浏览图片
按此在新窗口浏览图片
专辑名称:爱别离
专辑艺人:谭艳
制作公司:广东威扬文化传播有限公司
出版公司:太平洋影音公司
ISBN:978-7-79915-532-6
发行时间:2016年12月
资源格式:正版CD低速原抓WAV+CUE



专辑简介:


谭艳,用她独特的烟嗓,叙述看似平淡无奇的生活爱情,午夜梦回时,听着她的歌,歌里的故事像面镜子,倒映着自己的故事,或许是回忆,又或许是她的故事。
一场死心塌地的爱情没有天长地久的结局 《爱别离》— 总有一首歌是你的爱情。爱别离,求不得,放不下。听谭艳为爱唱出的离别殇。两情相悦实应是,奈何缘浅爱别离


下载压缩包内附高清无码大图


专辑曲目:

01.一无所有
02.为情所伤
03.两个人的回忆一个人过
04.死心塌地去爱你
05.遍体鳞伤
06.别说爰你是我一厢情愿
07.明明是你
08.关不上的窗
09.你(原创)
10.星语心愿
11.还记得那天的模样
12.回忆罪证(原创)

试听 03.两个人的回忆一个人过
[下载地址]


**** 本内容跟帖回复才可浏览 *****




----------------------------------------------


梦飞音乐的博客
http://blog.sina.com.cn/u/2590775214



 
qfcheng

回复时间:2020-7-25 22:51
Exact Audio Copy V1.0 beta 3 from 29. August 2011

EAC 抓取日志文件从3. 四月 2017, 16:09

谭艳 / 爱别离

使用驱动器 :SONY DVD-ROM DDU1615 Adapter: 2 ID: 0

读取模式 : 可靠Secure
使用精确流 : 是
清空音频缓存 : 是
使用 C2 指示器 : 否

组合读写偏移校正: : 6
读取 Lead-In 和 Lead-Out : 否
用静音填充抓取中丢失偏移的采样 : 是
去除首尾静音块 : 否
在CRC 计算中使用了空样本 : 是
已用接口 : Win NT 及 2000 本地 Win32 接口

所用输出模式: : 内部 WAV 函数
样本格式 : 44.100 Hz; 16 Bit; 立体声


已抓取 CD 的 TOC

音轨 | 起始 | 长度 | 起始扇区 | 结束扇区
--------------------------------------------
1 | 0:00.00 | 4:46.28 | 0 | 21477
2 | 4:46.28 | 3:46.13 | 21478 | 38440
3 | 8:32.41 | 3:55.26 | 38441 | 56091
4 | 12:27.67 | 4:23.72 | 56092 | 75888
5 | 16:51.64 | 4:14.47 | 75889 | 94985
6 | 21:06.36 | 4:02.61 | 94986 | 113196
7 | 25:09.22 | 4:09.35 | 113197 | 131906
8 | 29:18.57 | 4:20.70 | 131907 | 151476
9 | 33:39.52 | 4:59.58 | 151477 | 173959
10 | 38:39.35 | 4:01.15 | 173960 | 192049
11 | 42:40.50 | 4:12.28 | 192050 | 210977
12 | 46:53.03 | 5:07.01 | 210978 | 234003


范围状态及错误

已选择范围

文件名 F:\炫音音乐论坛原抓上传区\谭艳 爱别离\CDImage.wav

峰值电平 100.0 %
抓取速度 3.0 X
范围质量 100.0 %
复制 CRC E5810665
复制成功

没有错误发生

状态报告结尾




----------------------------------------------


梦飞音乐的博客
http://blog.sina.com.cn/u/2590775214



 
gaoxuan

回复时间:2020-7-25 23:48
谢谢分享如此优美的音乐!辛苦你了!

 
jinyuanliang

回复时间:2020-7-25 23:51
威扬文化传播

 
ziruzx

回复时间:2020-7-26 01:33
下载欣赏感谢分享

 
天涯海角818

回复时间:2020-7-26 02:00
谢谢分享

 
schxyun

回复时间:2020-7-26 02:37
谢谢分享

 
zmp8g

回复时间:2020-7-26 05:59
感谢分享。

 
阿弥托佛

回复时间:2020-7-26 07:35
谢谢分享!




----------------------------------------------

佑天佑地佑人 送福送禄送寿
看经典美图到三晋!



 
阿弥托佛

回复时间:2020-7-26 07:35
谢谢分享!




----------------------------------------------

佑天佑地佑人 送福送禄送寿
看经典美图到三晋!



 
voilet

回复时间:2020-7-26 15:42

 
云山云

回复时间:2020-7-26 20:26
谢谢分享

 
5604

回复时间:2020-7-26 21:50
支持楼主提供分享

 
wjtang

回复时间:2020-7-27 10:34
谢谢分享

 
源锋电子2C118

回复时间:2020-7-28 09:25
谢谢分享非常感谢

 
红海黄山

回复时间:2020-7-28 14:19
谢谢分享!

 
酷爱我的爱

回复时间:2020-7-29 08:39
也是很耐听,谢谢啊!

 
猪猪2017

回复时间:2020-7-29 08:45
感谢共享

 
xhli

回复时间:2020-7-31 14:25
动听好听的歌多谢分享

 
960317

回复时间:2020-7-31 15:12
谢谢楼主

 
发新帖 新投票
 回帖
查看积分策略说明快速回复主题
你的用户名: 密码:   免费注册(只要30秒)


启用 Html 代码
使用个人签名
(请您文明上网理性发言!并遵守相关规定
   



Processed in 0.021451 s, 8 q - sitemap,