发新帖  新投票  回帖 
qfcheng

发表时间:2020-9-6 10:20

陈佳《又见邓丽君2 DSD》[正版CD低速原抓WAV+CUE]



qfcheng 发表在 音乐地带 华声论坛 http://bbs.voc.com.cn/forum-77-1.html

按此在新窗口浏览图片
按此在新窗口浏览图片
按此在新窗口浏览图片

专辑名称:又见邓丽君2 DSD
专辑艺人:陈佳
制作发行:天艺文化传播有限公司
出版公司:齐鲁电子音像出版社
条形码:9787884415540
发行时间:2018年6月
资源格式:正版CD低速原抓WAV+CUE


专辑简介:

有种遇见,在不经意间让人怦然心动;有些音乐,在不经意中驱散人生黑暗。与君同语,与乐同行。她的歌曲,耳熟能详;她的歌声,有种穿透灵魂的力量,温暖人心。
她与她,相似,亦有着不同。歌声中,她用情感突破技巧,在某个瞬间打动人心。侧耳倾听, 每个字、每个音符中都能听到她真挚纯粹的情意,似是从情海深处捞出的珍贵宝石,任时光流逝,让人舍不得放开。
“小邓丽君”陈佳全新演绎邓丽君经典歌曲,任时光匆匆流去,她的歌声依然伴随我心,回响在耳畔。


下载压缩包内附高清无码大图


专辑曲目:

1.独上西楼
2.再见!我的爱人
3.东山飘雨西山晴(粤)
4.夜来香 Night Fragrance
5.時の流れに身をまかせ(任时光从身边流逝)
6.初次尝到寂寞
7.忘记他(粤)
8.但愿人长久
9.路边的野花不要采
10.可否多见一眼(粤)
11.美酒加咖啡
12.南海姑娘

试听 11.美酒加咖啡
[下载地址]


**** 本内容跟帖回复才可浏览 *****




----------------------------------------------


梦飞音乐的博客
http://blog.sina.com.cn/u/2590775214



 
qfcheng

回复时间:2020-9-6 10:21
Exact Audio Copy V1.3 from 2. September 2016

EAC 抓取日志文件从13. 七月 2018, 18:43

陈佳 / 又见邓丽君2

使用驱动器 :HL-DT-STDVD+-RW GH50N Adapter: 1 ID: 0

读取模式 : 可靠Secure
使用精确流 : 是
清空音频缓存 : 是
使用 C2 指示器 : 否

读取偏移校正: : 0
读取 Lead-In 和 Lead-Out : 否
用静音填充抓取中丢失偏移的采样 : 是
去除首尾静音块 : 否
在CRC 计算中使用了空样本 : 是
已用接口 : Win NT 及 2000 本地 Win32 接口

所用输出模式: : 内部 WAV 函数
样本格式 : 44.100 Hz; 16 Bit; 立体声


已抓取 CD 的 TOC

音轨 | 起始 | 长度 | 起始扇区 | 结束扇区
--------------------------------------------
1 | 0:00.00 | 2:56.16 | 0 | 13215
2 | 2:56.16 | 3:36.08 | 13216 | 29423
3 | 6:32.24 | 3:17.13 | 29424 | 44211
4 | 9:49.37 | 3:49.49 | 44212 | 61435
5 | 13:39.11 | 4:08.13 | 61436 | 80048
6 | 17:47.24 | 4:01.57 | 80049 | 98180
7 | 21:49.06 | 3:01.22 | 98181 | 111777
8 | 24:50.28 | 4:33.19 | 111778 | 132271
9 | 29:23.47 | 2:09.32 | 132272 | 141978
10 | 31:33.04 | 3:57.55 | 141979 | 159808
11 | 35:30.59 | 3:36.66 | 159809 | 176074
12 | 39:07.50 | 3:38.16 | 176075 | 192440


范围状态及错误

已选择范围

文件名 F:\炫音音乐论坛原抓上传区\陈佳 - 又见邓丽君2.wav

峰值电平 100.0 %
抓取速度 4.9 X
范围质量 100.0 %
复制 CRC CB696BB0
复制成功

没有错误发生

状态报告结尾




----------------------------------------------


梦飞音乐的博客
http://blog.sina.com.cn/u/2590775214



 
walktomusi

回复时间:2020-9-6 11:35
永远的缭绕

 
chbsnnzl

回复时间:2020-9-6 14:34
感谢楼主分享

 
wbyet

回复时间:2020-9-6 15:24
感谢大神们的分享!

 
wjtang

回复时间:2020-9-6 16:04
感谢楼主分享

 
bjman101

回复时间:2020-9-6 19:19
支持分享

 
柳红草绿

回复时间:2020-9-6 19:31
感谢楼主分享

 
云山云

回复时间:2020-9-6 19:34
谢谢分享

 
mimigigi

回复时间:2020-9-6 19:44
谢谢分享

 
LX13531

回复时间:2020-9-6 23:16
谢谢“小邓丽君”佳作推介

 
阿弥托佛

回复时间:2020-9-7 07:15
谢谢分享!




----------------------------------------------

佑天佑地佑人 送福送禄送寿
看经典美图到三晋!



 
阿弥托佛

回复时间:2020-9-7 07:16
谢谢分享!




----------------------------------------------

佑天佑地佑人 送福送禄送寿
看经典美图到三晋!



 
国都

回复时间:2020-9-7 19:18
感谢楼主分享

 
jinli62

回复时间:2020-9-7 23:31
谢谢分享 陈佳《又见邓丽君 2》

 
longgege2

回复时间:2020-9-8 03:13
谢谢分享

 
mqrong

回复时间:2020-9-8 10:28
谢谢分享

 
fjqzhr

回复时间:2020-9-8 15:04
谢谢分享

 
无生法忍

回复时间:2020-9-8 16:20
永远的缭绕

 
sanshaoye56

回复时间:2020-9-10 21:39

 
发新帖 新投票
 回帖
查看积分策略说明快速回复主题
你的用户名: 密码:   免费注册(只要30秒)


启用 Html 代码
使用个人签名
(请您文明上网理性发言!并遵守相关规定
   



Processed in 0.095196 s, 8 q - 无图精简版,sitemap,