发新帖  新投票  回帖 
梦回云阳

发表时间:2020-9-21 15:42

【梦回云阳与您有约】天使女伶·新历程【WAV+CUE/百度网盘】



梦回云阳 发表在 音乐地带 华声论坛 http://bbs.voc.com.cn/forum-77-1.html










**** 本内容跟帖回复才可浏览 *****



[本帖最后由 梦回云阳 于 2020-9-21 15:46 编辑]

本帖助威记录

小黄007985 +1
天啊,这还是帖子吗?简直是神作
2020-09-27 16:19:31
总计:魅力1点 助威1查看所有助威>>



----------------------------------------------
友情提醒:下载测试资源存放于免费网盘,不保证资源的长期有效;若有任何一方主张版权,请各管管或版版直接删除本帖,不用任何形式的通知我本人,谢谢。

华声论坛 影音帝国 官方QQ群
影视时空|音乐地带 QQ群:140288348 128111319 42933722
音乐快递QQ群:338549863 原声地带QQ群:344590352
高品质单曲QQ群:116060792 心情音乐QQ群:154659931
心情吟诵QQ群:190584521 音乐播放器QQ群:206520165
 
梦回云阳

回复时间:2020-9-21 15:43

专辑名称:天使女伶·新历程
专辑艺人:群星
发行时间:2007
资源格式:WAV+CUE
专辑简介:
曼哈顿唱片,凯尔特女怜金曲专辑。


专辑曲目
01.空和黎明和太阳
02.祈祷
03.新庄园
04.在彩虹之上
05.Granuaile's Dance
06.祝福
07.laman
08.海的那边
09.夏日最后的玫瑰
10.苏格兰
11.Laschia ChToPanga
12.卡里克弗格斯
13.维瓦尔第的雨
14.The Voice
15.斯卡布罗集市
16.Mo Ghile Mear
17.唱出来
18.谢南多厄-太平洋斜坡
19.At The C e ili
20.西班牙小姐





----------------------------------------------
友情提醒:下载测试资源存放于免费网盘,不保证资源的长期有效;若有任何一方主张版权,请各管管或版版直接删除本帖,不用任何形式的通知我本人,谢谢。

华声论坛 影音帝国 官方QQ群
影视时空|音乐地带 QQ群:140288348 128111319 42933722
音乐快递QQ群:338549863 原声地带QQ群:344590352
高品质单曲QQ群:116060792 心情音乐QQ群:154659931
心情吟诵QQ群:190584521 音乐播放器QQ群:206520165
 
梦回云阳

回复时间:2020-9-21 15:43

按此在新窗口浏览图片





----------------------------------------------
友情提醒:下载测试资源存放于免费网盘,不保证资源的长期有效;若有任何一方主张版权,请各管管或版版直接删除本帖,不用任何形式的通知我本人,谢谢。

华声论坛 影音帝国 官方QQ群
影视时空|音乐地带 QQ群:140288348 128111319 42933722
音乐快递QQ群:338549863 原声地带QQ群:344590352
高品质单曲QQ群:116060792 心情音乐QQ群:154659931
心情吟诵QQ群:190584521 音乐播放器QQ群:206520165
 
梦回云阳

回复时间:2020-9-21 15:43

按此在新窗口浏览图片





----------------------------------------------
友情提醒:下载测试资源存放于免费网盘,不保证资源的长期有效;若有任何一方主张版权,请各管管或版版直接删除本帖,不用任何形式的通知我本人,谢谢。

华声论坛 影音帝国 官方QQ群
影视时空|音乐地带 QQ群:140288348 128111319 42933722
音乐快递QQ群:338549863 原声地带QQ群:344590352
高品质单曲QQ群:116060792 心情音乐QQ群:154659931
心情吟诵QQ群:190584521 音乐播放器QQ群:206520165
 
郑志辉

回复时间:2020-9-21 15:44
多谢分享!

 
梦回云阳

回复时间:2020-9-21 15:44

抓轨前检测




按此在新窗口浏览图片


按此在新窗口浏览图片


按此在新窗口浏览图片





----------------------------------------------
友情提醒:下载测试资源存放于免费网盘,不保证资源的长期有效;若有任何一方主张版权,请各管管或版版直接删除本帖,不用任何形式的通知我本人,谢谢。

华声论坛 影音帝国 官方QQ群
影视时空|音乐地带 QQ群:140288348 128111319 42933722
音乐快递QQ群:338549863 原声地带QQ群:344590352
高品质单曲QQ群:116060792 心情音乐QQ群:154659931
心情吟诵QQ群:190584521 音乐播放器QQ群:206520165
 
梦回云阳

回复时间:2020-9-21 15:45
EAC 抓取日志文件


Exact Audio Copy V0.99 prebeta 4 from 23. January 2008

EAC 抓取日志文件从5. 七月 2020, 8:59

群星 / 天使女伶·新历程

使用驱动器 :MATSHITADVD-RAM UJ8E0 Adapter: 1 ID: 0

读取模式 : 暴发

读取偏移校正 : 0
读取 Lead-In 和 Lead-Out : 否
用静音填充抓取中丢失偏移的采样 : 是
去除首尾静音块 : 否
在 CRC 计算中使用了空样本 : 否
已用接口 : Win NT 及 2000 本地 Win32 接口

所用输出格式 : 内部 WAV 函数
样本格式 : 44.100 Hz;16 Bit;立体声


被抓轨 CD 的 TOC

音轨 | 开始 | 长度 | 起始扇区 | 结尾扇区
--------------------------------------------------
1 | 0:00.00 | 5:23.51 | 0 | 24275
2 | 5:23.51 | 4:23.26 | 24276 | 44026
3 | 9:47.02 | 3:10.45 | 44027 | 58321
4 | 12:57.47 | 2:40.52 | 58322 | 70373
5 | 15:38.24 | 3:43.61 | 70374 | 87159
6 | 19:22.10 | 3:53.29 | 87160 | 104663
7 | 23:15.39 | 3:07.38 | 104664 | 118726
8 | 26:23.02 | 3:23.27 | 118727 | 133978
9 | 29:46.29 | 3:40.41 | 133979 | 150519
10 | 33:26.70 | 5:03.05 | 150520 | 173249
11 | 38:30.00 | 3:36.26 | 173250 | 189475
12 | 42:06.26 | 3:48.04 | 189476 | 206579
13 | 45:54.30 | 2:15.71 | 206580 | 216775
14 | 48:10.26 | 3:09.20 | 216776 | 230970
15 | 51:19.46 | 3:17.30 | 230971 | 245775
16 | 54:37.01 | 4:54.48 | 245776 | 267873
17 | 59:31.49 | 4:09.13 | 267874 | 286561
18 | 63:40.62 | 4:48.09 | 286562 | 308170
19 | 68:28.71 | 5:03.72 | 308171 | 330967
20 | 73:32.68 | 2:22.60 | 330968 | 341677


范围状态及错误

已选择范围

文件名 F:\音频抓轨\群星 - 天使女伶·新历程.wav

计时问题 1:00:52

峰值电平 98.8 %
复制 CRC 602A2844
复制结束

没有错误发生

状态报告结尾




----------------------------------------------
友情提醒:下载测试资源存放于免费网盘,不保证资源的长期有效;若有任何一方主张版权,请各管管或版版直接删除本帖,不用任何形式的通知我本人,谢谢。

华声论坛 影音帝国 官方QQ群
影视时空|音乐地带 QQ群:140288348 128111319 42933722
音乐快递QQ群:338549863 原声地带QQ群:344590352
高品质单曲QQ群:116060792 心情音乐QQ群:154659931
心情吟诵QQ群:190584521 音乐播放器QQ群:206520165
 
梦回云阳

回复时间:2020-9-21 15:45
所有音乐仅供测试及试听,音乐版权归原唱片公司所有,任何人不得用于商业用途!




----------------------------------------------
友情提醒:下载测试资源存放于免费网盘,不保证资源的长期有效;若有任何一方主张版权,请各管管或版版直接删除本帖,不用任何形式的通知我本人,谢谢。

华声论坛 影音帝国 官方QQ群
影视时空|音乐地带 QQ群:140288348 128111319 42933722
音乐快递QQ群:338549863 原声地带QQ群:344590352
高品质单曲QQ群:116060792 心情音乐QQ群:154659931
心情吟诵QQ群:190584521 音乐播放器QQ群:206520165
 
lcj710503

回复时间:2020-9-21 15:49
谢谢分享

 
雨水煮茶

回复时间:2020-9-21 16:32
感谢分享

 
aliliok

回复时间:2020-9-21 17:10
经典永流传。

 
60726

回复时间:2020-9-22 05:57
谢谢楼主分享

 
阿弥托佛

回复时间:2020-9-22 07:26
谢谢分享!




----------------------------------------------

佑天佑地佑人 送福送禄送寿
看经典美图到三晋!



 
阿弥托佛

回复时间:2020-9-22 07:26
谢谢分享!




----------------------------------------------

佑天佑地佑人 送福送禄送寿
看经典美图到三晋!



 
阿弥托佛

回复时间:2020-9-22 07:26
谢谢分享!




----------------------------------------------

佑天佑地佑人 送福送禄送寿
看经典美图到三晋!



 
bjman101

回复时间:2020-9-22 09:41
支持分享

 
2268685

回复时间:2020-9-22 10:01
谢谢楼主分享!!!

 
弓翁

回复时间:2020-9-22 10:38
谢谢分享!

 
walkman2012

回复时间:2020-9-22 11:40
谢谢分享

 
飞跃关山

回复时间:2020-9-22 15:06
亮声 喜欢




----------------------------------------------
 
发新帖 新投票
 回帖
查看积分策略说明快速回复主题
你的用户名: 密码:   免费注册(只要30秒)


启用 Html 代码
使用个人签名
(请您文明上网理性发言!并遵守相关规定
   



Processed in 0.040446 s, 9 q - 无图精简版,sitemap,