发新帖  新投票  回帖 
晨风飞鸟

发表时间:2020-10-29 00:02

[下载]木村好夫 - 《演歌俱乐部9发烧吉他》[WAV][下载]



晨风飞鸟 发表在 音乐地带 华声论坛 http://bbs.voc.com.cn/forum-77-1.html

  日本演奏家,被称作“日本吉他天皇“。
  木村好夫的精湛演奏技巧世界闻名,在众多老资格的华人“发烧友”们心目中,“木村好夫”这个名字几乎
  已经成了“发烧”的代名词, 在木村好夫的演奏事业里,好歌犹如银河之星。这些经典金曲给你带来无限思念
  ,段段回忆,上好音色,动听旋律,节奏明快,意境浪漫,情怀醉心宝典。该碟曲目相对现今的流行歌曲虽有
  些老,但全是我们耳熟的旋律优美的金曲,如“北国之春”等,音质绝对一流。木村好夫的演奏晶莹通透、
  飘曳轻灵,绝不炫技而是恰如其分,风格淳和不惊,不疾不徐地弹拨捻拢,在歌唱性美轮美奂的同时,又显
  示出了一种独特而可贵的日本化气质。这种气质很难以言语来确切描述。
  曲目:
  TRACK 01 AUDIO
  TITLE "北国の春"
  INDEX 01 00:00:00
  TRACK 02 AUDIO
  TITLE "津軽平野"
  INDEX 00 03:53:72
  INDEX 01 03:56:47
  TRACK 03 AUDIO
  TITLE "望郷じょんがら"
  INDEX 00 06:43:00
  INDEX 01 06:45:45
  TRACK 04 AUDIO
  TITLE "みちのくひとり旅"
  INDEX 00 09:26:62
  INDEX 01 09:29:27
  TRACK 05 AUDIO
  TITLE "山"
  INDEX 00 13:15:00
  INDEX 01 13:17:32
  TRACK 06 AUDIO
  TITLE "川"
  INDEX 00 16:32:30
  INDEX 01 16:35:02
  TRACK 07 AUDIO
  TITLE "まっり"
  INDEX 00 19:24:40
  INDEX 01 19:27:15
  TRACK 08 AUDIO
  TITLE "風の盆恋歌"
  INDEX 00 23:32:72
  INDEX 01 23:35:45
  TRACK 09 AUDIO
  TITLE "帰ってこいよ"
  INDEX 00 27:15:32
  INDEX 01 27:18:20
  TRACK 10 AUDIO
  TITLE "帰ろかな"
  INDEX 00 29:49:12
  INDEX 01 29:51:62
  TRACK 11 AUDIO
  TITLE "夕焼け雲"
  INDEX 00 33:25:05
  INDEX 01 33:27:65
  TRACK 12 AUDIO
  TITLE "友禅流し"
  INDEX 00 36:33:60
  INDEX 01 36:36:37
  TRACK 13 AUDIO
  TITLE " 夢追い川"
  INDEX 00 40:08:34
  INDEX 01 40:11:15
  TRACK 14 AUDIO
  TITLE "与作"
  INDEX 00 43:37:40
  INDEX 01 43:40:10
  TRACK 15 AUDIO
  TITLE "細雪"
  INDEX 00 47:49:67
  INDEX 01 47:52:27
  TRACK 16 AUDIO
  TITLE "雪國 (カバー)"
  INDEX 00 51:12:40
  INDEX 01 51:15:10
  **** 本内容跟帖回复才可浏览 *****按此在新窗口浏览图片
  按此在新窗口浏览图片
  

 
bjman101

回复时间:2020-10-29 00:17
支持分享

 
阿弥托佛

回复时间:2020-10-29 08:47
谢谢分享!




----------------------------------------------

佑天佑地佑人 送福送禄送寿
看经典美图到三晋!



 
阿弥托佛

回复时间:2020-10-29 08:47
谢谢分享!




----------------------------------------------

佑天佑地佑人 送福送禄送寿
看经典美图到三晋!



 
zhizhuxia0214

回复时间:2020-10-29 08:59
多谢分享

 
syreiz

回复时间:2020-10-29 09:02
支持分享

 
wenlin0000

回复时间:2020-10-29 09:20
感謝樓主的分享,收下了。

 
云水随缘2017

回复时间:2020-10-29 09:28
谢谢分享!

 
有法无天?

回复时间:2020-10-29 09:29
谢谢分享

 
sunmay2018

回复时间:2020-10-29 16:09
谢谢樓主分享

 
li6409

回复时间:2020-10-29 16:36
感谢分享

 
吾心乐处

回复时间:2020-10-29 16:43
感谢分享

 
wycbs

回复时间:2020-10-29 16:53
谢谢你分享了啊。

 
pgzpgz6188

回复时间:2020-10-29 22:15
精品,谢谢分享

 
ybc67

回复时间:2020-10-29 22:46
谢谢楼主分享。

 
枝吱

回复时间:2020-10-30 10:03
感谢楼主的分享

 
haixi001

回复时间:2020-10-30 11:14
谢谢分享。

 
anhuijilei

回复时间:2020-10-30 11:23
谢谢分享

 
yuguo0005

回复时间:2020-10-30 11:34
感謝樓主的分享,收下了。

 
晨风飞鸟

回复时间:2020-11-3 19:48
网上不多见的资源,很好听,除了第一首北国之春有点听腻了,其他都很好听。按此在新窗口浏览图片

 
发新帖 新投票
 回帖
查看积分策略说明快速回复主题
你的用户名: 密码:   免费注册(只要30秒)


启用 Html 代码
使用个人签名
(请您文明上网理性发言!并遵守相关规定
   



Processed in 0.027730 s, 8 q - 无图精简版,sitemap,