发新帖  新投票  回帖 
梦回云阳

发表时间:2020-11-16 14:32

【梦回云阳与您有约】天使女伶·天使之歌【WAV+CUE/百度网盘】



梦回云阳 发表在 音乐地带 华声论坛 http://bbs.voc.com.cn/forum-77-1.html










**** 本内容跟帖回复才可浏览 *****





----------------------------------------------
友情提醒:下载测试资源存放于免费网盘,不保证资源的长期有效;若有任何一方主张版权,请各管管或版版直接删除本帖,不用任何形式的通知我本人,谢谢。

华声论坛 影音帝国 官方QQ群
影视时空|音乐地带 QQ群:140288348 128111319 42933722
音乐快递QQ群:338549863 原声地带QQ群:344590352
高品质单曲QQ群:116060792 心情音乐QQ群:154659931
心情吟诵QQ群:190584521 音乐播放器QQ群:206520165
 
梦回云阳

回复时间:2020-11-16 14:33

专辑名称:天使女伶·天使之歌
专辑艺人:群星
发行时间:2002
资源格式:WAV+CUE
专辑简介:
曼哈顿唱片,凯尔特女怜金曲专辑。


专辑曲目
01.天使的歌
02.丹尼男孩
03.万福玛丽亚
04.当你相信的时候
05.水是宽的
06.家里的声音
07.在空中漫步
08.祈祷
09.夏日最后的玫瑰
10. Lascia Ch'io Pianga
11.布拉姆斯摇篮曲





----------------------------------------------
友情提醒:下载测试资源存放于免费网盘,不保证资源的长期有效;若有任何一方主张版权,请各管管或版版直接删除本帖,不用任何形式的通知我本人,谢谢。

华声论坛 影音帝国 官方QQ群
影视时空|音乐地带 QQ群:140288348 128111319 42933722
音乐快递QQ群:338549863 原声地带QQ群:344590352
高品质单曲QQ群:116060792 心情音乐QQ群:154659931
心情吟诵QQ群:190584521 音乐播放器QQ群:206520165
 
梦回云阳

回复时间:2020-11-16 14:33

按此在新窗口浏览图片





----------------------------------------------
友情提醒:下载测试资源存放于免费网盘,不保证资源的长期有效;若有任何一方主张版权,请各管管或版版直接删除本帖,不用任何形式的通知我本人,谢谢。

华声论坛 影音帝国 官方QQ群
影视时空|音乐地带 QQ群:140288348 128111319 42933722
音乐快递QQ群:338549863 原声地带QQ群:344590352
高品质单曲QQ群:116060792 心情音乐QQ群:154659931
心情吟诵QQ群:190584521 音乐播放器QQ群:206520165
 
梦回云阳

回复时间:2020-11-16 14:34

按此在新窗口浏览图片





----------------------------------------------
友情提醒:下载测试资源存放于免费网盘,不保证资源的长期有效;若有任何一方主张版权,请各管管或版版直接删除本帖,不用任何形式的通知我本人,谢谢。

华声论坛 影音帝国 官方QQ群
影视时空|音乐地带 QQ群:140288348 128111319 42933722
音乐快递QQ群:338549863 原声地带QQ群:344590352
高品质单曲QQ群:116060792 心情音乐QQ群:154659931
心情吟诵QQ群:190584521 音乐播放器QQ群:206520165
 
梦回云阳

回复时间:2020-11-16 14:34

抓轨前检测

按此在新窗口浏览图片


按此在新窗口浏览图片


按此在新窗口浏览图片





----------------------------------------------
友情提醒:下载测试资源存放于免费网盘,不保证资源的长期有效;若有任何一方主张版权,请各管管或版版直接删除本帖,不用任何形式的通知我本人,谢谢。

华声论坛 影音帝国 官方QQ群
影视时空|音乐地带 QQ群:140288348 128111319 42933722
音乐快递QQ群:338549863 原声地带QQ群:344590352
高品质单曲QQ群:116060792 心情音乐QQ群:154659931
心情吟诵QQ群:190584521 音乐播放器QQ群:206520165
 
梦回云阳

回复时间:2020-11-16 14:35
EAC 抓取日志文件:

Exact Audio Copy V0.99 prebeta 4 from 23. January 2008

EAC 抓取日志文件从5. 七月 2020, 10:25

群星 / 天使女伶·天使之歌

使用驱动器 :MATSHITADVD-RAM UJ8E0 Adapter: 1 ID: 0

读取模式 : 暴发

读取偏移校正 : 0
读取 Lead-In 和 Lead-Out : 否
用静音填充抓取中丢失偏移的采样 : 是
去除首尾静音块 : 否
在 CRC 计算中使用了空样本 : 否
已用接口 : Win NT 及 2000 本地 Win32 接口

所用输出格式 : 内部 WAV 函数
样本格式 : 44.100 Hz;16 Bit;立体声


被抓轨 CD 的 TOC

音轨 | 开始 | 长度 | 起始扇区 | 结尾扇区
--------------------------------------------------
1 | 0:00.00 | 3:59.70 | 0 | 17994
2 | 3:59.70 | 3:52.01 | 17995 | 35395
3 | 7:51.71 | 2:54.12 | 35396 | 48457
4 | 10:46.08 | 3:36.56 | 48458 | 64713
5 | 14:22.64 | 3:10.63 | 64714 | 79026
6 | 17:33.52 | 4:30.26 | 79027 | 99302
7 | 22:04.03 | 3:23.33 | 99303 | 114560
8 | 25:27.36 | 4:22.28 | 114561 | 134238
9 | 29:49.64 | 3:21.29 | 134239 | 149342
10 | 33:11.18 | 4:17.62 | 149343 | 168679
11 | 37:29.05 | 3:12.21 | 168680 | 183100


范围状态及错误

已选择范围

文件名 F:\音频抓轨\群星 - 天使女伶·天使之歌.wav

峰值电平 98.9 %
复制 CRC 74005854
复制成功

没有错误发生

状态报告结尾




----------------------------------------------
友情提醒:下载测试资源存放于免费网盘,不保证资源的长期有效;若有任何一方主张版权,请各管管或版版直接删除本帖,不用任何形式的通知我本人,谢谢。

华声论坛 影音帝国 官方QQ群
影视时空|音乐地带 QQ群:140288348 128111319 42933722
音乐快递QQ群:338549863 原声地带QQ群:344590352
高品质单曲QQ群:116060792 心情音乐QQ群:154659931
心情吟诵QQ群:190584521 音乐播放器QQ群:206520165
 
梦回云阳

回复时间:2020-11-16 14:35
所有音乐仅供测试及试听,音乐版权归原唱片公司所有,任何人不得用于商业用途!




----------------------------------------------
友情提醒:下载测试资源存放于免费网盘,不保证资源的长期有效;若有任何一方主张版权,请各管管或版版直接删除本帖,不用任何形式的通知我本人,谢谢。

华声论坛 影音帝国 官方QQ群
影视时空|音乐地带 QQ群:140288348 128111319 42933722
音乐快递QQ群:338549863 原声地带QQ群:344590352
高品质单曲QQ群:116060792 心情音乐QQ群:154659931
心情吟诵QQ群:190584521 音乐播放器QQ群:206520165
 
雨水煮茶

回复时间:2020-11-16 15:05
感谢分享

 
bjman101

回复时间:2020-11-16 15:07
支持分享

 
lcj710503

回复时间:2020-11-16 15:16
谢谢分享

 
邵荣昌

回复时间:2020-11-16 22:22
好听,谢谢楼主

 
ssqkxa

回复时间:2020-11-16 22:25
谢谢分享...

 
LX13531

回复时间:2020-11-16 23:46
谢谢推介此2002专辑

 
shsc

回复时间:2020-11-17 00:41
感谢分享

 
有法无天?

回复时间:2020-11-17 06:10
谢谢分享

 
阿弥托佛

回复时间:2020-11-17 07:11
谢谢分享!




----------------------------------------------

佑天佑地佑人 送福送禄送寿
看经典美图到三晋!



 
阿弥托佛

回复时间:2020-11-17 07:11
谢谢分享!




----------------------------------------------

佑天佑地佑人 送福送禄送寿
看经典美图到三晋!



 
jjybzxw

回复时间:2020-11-17 08:51
欣赏佳作来了。谢谢。

 
momoshlfquan

回复时间:2020-11-17 09:01
用静音填充抓取中丢失偏移的采样 : 是

 
5604

回复时间:2020-11-17 09:09
支持楼主提供分享

 
发新帖 新投票
 回帖
查看积分策略说明快速回复主题
你的用户名: 密码:   免费注册(只要30秒)


启用 Html 代码
使用个人签名
(请您文明上网理性发言!并遵守相关规定
   



Processed in 0.030138 s, 9 q - 无图精简版,sitemap,