发新帖  新投票  回帖 
梦回云阳

发表时间:2020-12-27 13:40

【梦回云阳与您有约】天使女伶·MEAV【WAV+CUE/百度网盘】



梦回云阳 发表在 音乐地带 华声论坛 http://bbs.voc.com.cn/forum-77-1.html










**** 本内容跟帖回复才可浏览 *****



[本帖最后由 梦回云阳 于 2020-12-27 17:32 编辑]

本帖助威记录

百灵 +5
看了楼主的帖,神马都是浮云
2021-01-15 21:52:03
夏星星 +1
比这精彩的帖子还有木有
2021-01-09 17:02:51
山河2020 +1
2021-01-06 10:10:30
炫舞e时空 +1
你的帖子可以上新闻联播了
2020-12-27 23:33:34
馨儿xlney +5
比这精彩的帖子还有木有
2020-12-27 20:42:23
总计:魅力34点 助威10查看所有助威>>

本帖最近评分记录
兰蕙hn   2020-12-27 14:23  金钱  +20   好帖
兰蕙hn   2020-12-27 14:23  魅力  +20   好帖



----------------------------------------------
友情提醒:下载测试资源存放于免费网盘,不保证资源的长期有效;若有任何一方主张版权,请各管管或版版直接删除本帖,不用任何形式的通知我本人,谢谢。

华声论坛 影音帝国 官方QQ群
影视时空|音乐地带 QQ群:140288348 128111319 42933722
音乐快递QQ群:338549863 原声地带QQ群:344590352
高品质单曲QQ群:116060792 心情音乐QQ群:154659931
心情吟诵QQ群:190584521 音乐播放器QQ群:206520165
 
梦回云阳

回复时间:2020-12-27 13:41

专辑名称:天使女伶·MEAV
专辑艺人:群星
发行时间:1998
资源格式:WAV+CUE
专辑简介:
曼哈顿唱片,凯尔特女怜金曲专辑。


专辑曲目
01.罗布罗伊的主题
02.我梦见我居住在大理石大厅
03.她走过集市
04.索韦的歌
05.我闹
06.我希望我的爱是一朵红红的玫瑰
07.Si do Mhaime
08.因为我和你是真的
09.The Death of Queen Jane
10.闭上你的眼晴
11.我爱的人
12.凯尔特祈祷





----------------------------------------------
友情提醒:下载测试资源存放于免费网盘,不保证资源的长期有效;若有任何一方主张版权,请各管管或版版直接删除本帖,不用任何形式的通知我本人,谢谢。

华声论坛 影音帝国 官方QQ群
影视时空|音乐地带 QQ群:140288348 128111319 42933722
音乐快递QQ群:338549863 原声地带QQ群:344590352
高品质单曲QQ群:116060792 心情音乐QQ群:154659931
心情吟诵QQ群:190584521 音乐播放器QQ群:206520165
 
梦回云阳

回复时间:2020-12-27 13:42

按此在新窗口浏览图片





----------------------------------------------
友情提醒:下载测试资源存放于免费网盘,不保证资源的长期有效;若有任何一方主张版权,请各管管或版版直接删除本帖,不用任何形式的通知我本人,谢谢。

华声论坛 影音帝国 官方QQ群
影视时空|音乐地带 QQ群:140288348 128111319 42933722
音乐快递QQ群:338549863 原声地带QQ群:344590352
高品质单曲QQ群:116060792 心情音乐QQ群:154659931
心情吟诵QQ群:190584521 音乐播放器QQ群:206520165
 
梦回云阳

回复时间:2020-12-27 13:42

按此在新窗口浏览图片





----------------------------------------------
友情提醒:下载测试资源存放于免费网盘,不保证资源的长期有效;若有任何一方主张版权,请各管管或版版直接删除本帖,不用任何形式的通知我本人,谢谢。

华声论坛 影音帝国 官方QQ群
影视时空|音乐地带 QQ群:140288348 128111319 42933722
音乐快递QQ群:338549863 原声地带QQ群:344590352
高品质单曲QQ群:116060792 心情音乐QQ群:154659931
心情吟诵QQ群:190584521 音乐播放器QQ群:206520165
 
梦回云阳

回复时间:2020-12-27 13:43

抓轨前检测

按此在新窗口浏览图片


按此在新窗口浏览图片


按此在新窗口浏览图片





----------------------------------------------
友情提醒:下载测试资源存放于免费网盘,不保证资源的长期有效;若有任何一方主张版权,请各管管或版版直接删除本帖,不用任何形式的通知我本人,谢谢。

华声论坛 影音帝国 官方QQ群
影视时空|音乐地带 QQ群:140288348 128111319 42933722
音乐快递QQ群:338549863 原声地带QQ群:344590352
高品质单曲QQ群:116060792 心情音乐QQ群:154659931
心情吟诵QQ群:190584521 音乐播放器QQ群:206520165
 
梦回云阳

回复时间:2020-12-27 13:44
EAC 抓取日志文件:

Exact Audio Copy V0.99 prebeta 4 from 23. January 2008

EAC 抓取日志文件从5. 七月 2020, 11:10

群星 / 天使女伶·MEAV

使用驱动器 :MATSHITADVD-RAM UJ8E0 Adapter: 1 ID: 0

读取模式 : 暴发

读取偏移校正 : 0
读取 Lead-In 和 Lead-Out : 否
用静音填充抓取中丢失偏移的采样 : 是
去除首尾静音块 : 否
在 CRC 计算中使用了空样本 : 否
已用接口 : Win NT 及 2000 本地 Win32 接口

所用输出格式 : 内部 WAV 函数
样本格式 : 44.100 Hz;16 Bit;立体声


被抓轨 CD 的 TOC

音轨 | 开始 | 长度 | 起始扇区 | 结尾扇区
--------------------------------------------------
1 | 0:00.00 | 4:17.10 | 0 | 19284
2 | 4:17.10 | 3:54.61 | 19285 | 36895
3 | 8:11.71 | 4:11.61 | 36896 | 55781
4 | 12:23.57 | 3:59.61 | 55782 | 73767
5 | 16:23.43 | 3:07.26 | 73768 | 87818
6 | 19:30.69 | 3:33.52 | 87819 | 103845
7 | 23:04.46 | 2:19.53 | 103846 | 114323
8 | 25:24.24 | 3:37.29 | 114324 | 130627
9 | 29:01.53 | 5:46.26 | 130628 | 156603
10 | 34:48.04 | 3:18.68 | 156604 | 171521
11 | 38:06.72 | 2:55.61 | 171522 | 184707
12 | 41:02.58 | 4:19.66 | 184708 | 204198


范围状态及错误

已选择范围

文件名 F:\音频抓轨\群星 - 天使女伶·MEAV.wav

计时问题 0:18:46

峰值电平 99.7 %
复制 CRC 23809E50
复制结束

没有错误发生

状态报告结尾




----------------------------------------------
友情提醒:下载测试资源存放于免费网盘,不保证资源的长期有效;若有任何一方主张版权,请各管管或版版直接删除本帖,不用任何形式的通知我本人,谢谢。

华声论坛 影音帝国 官方QQ群
影视时空|音乐地带 QQ群:140288348 128111319 42933722
音乐快递QQ群:338549863 原声地带QQ群:344590352
高品质单曲QQ群:116060792 心情音乐QQ群:154659931
心情吟诵QQ群:190584521 音乐播放器QQ群:206520165
 
梦回云阳

回复时间:2020-12-27 13:44
所有音乐仅供测试及试听,音乐版权归原唱片公司所有,任何人不得用于商业用途!




----------------------------------------------
友情提醒:下载测试资源存放于免费网盘,不保证资源的长期有效;若有任何一方主张版权,请各管管或版版直接删除本帖,不用任何形式的通知我本人,谢谢。

华声论坛 影音帝国 官方QQ群
影视时空|音乐地带 QQ群:140288348 128111319 42933722
音乐快递QQ群:338549863 原声地带QQ群:344590352
高品质单曲QQ群:116060792 心情音乐QQ群:154659931
心情吟诵QQ群:190584521 音乐播放器QQ群:206520165
 
兰蕙hn
原创音画组

回复时间:2020-12-27 14:10
静静滴欣赏...




----------------------------------------------
取个网名叫“兰蕙”,并不是真的认为自己就是兰心蕙质的女人,而是把这作为我的一种追求,一种境界。
 
兰蕙hn
原创音画组

回复时间:2020-12-27 14:20
空灵,悠远,深情,入心入境,直达人的心灵,优美至极!




----------------------------------------------
取个网名叫“兰蕙”,并不是真的认为自己就是兰心蕙质的女人,而是把这作为我的一种追求,一种境界。
 
兰蕙hn
原创音画组

回复时间:2020-12-27 14:26
原抓无损云阳老师狠狠滴辛苦了,感谢精彩分享




----------------------------------------------
取个网名叫“兰蕙”,并不是真的认为自己就是兰心蕙质的女人,而是把这作为我的一种追求,一种境界。
 
兰蕙hn
原创音画组

回复时间:2020-12-27 14:27
这个一定要收藏起来




----------------------------------------------
取个网名叫“兰蕙”,并不是真的认为自己就是兰心蕙质的女人,而是把这作为我的一种追求,一种境界。
 
兰蕙hn
原创音画组

回复时间:2020-12-27 14:36
画面精美绚丽,频谱漂亮极了,播放器功能强大,各按钮使用灵和,爱不释手啊




----------------------------------------------
取个网名叫“兰蕙”,并不是真的认为自己就是兰心蕙质的女人,而是把这作为我的一种追求,一种境界。
 
自由飞翔6888

回复时间:2020-12-27 14:53
好漂亮的十频谱播放器,音乐动听,制作出彩




----------------------------------------------
让我们都来热爱音乐吧,让音乐为我们人类造福!

影视时空|音乐地带 QQ群:140288348 128111319 42933722
音乐快递QQ群:338549863 原声地带QQ群:344590352
高品质单曲QQ群:116060792 心情音乐QQ群:154659931
心情吟诵QQ群:190584521 音乐播放器QQ群:206520165
华声论坛 有你更精彩!!
 
自由飞翔6888

回复时间:2020-12-27 14:54
问候云阳老师,抓碟辛苦了,感谢精彩分享




----------------------------------------------
让我们都来热爱音乐吧,让音乐为我们人类造福!

影视时空|音乐地带 QQ群:140288348 128111319 42933722
音乐快递QQ群:338549863 原声地带QQ群:344590352
高品质单曲QQ群:116060792 心情音乐QQ群:154659931
心情吟诵QQ群:190584521 音乐播放器QQ群:206520165
华声论坛 有你更精彩!!
 
顺⑦自然090108

回复时间:2020-12-27 15:18
超级好听

 
顺⑦自然090108

回复时间:2020-12-27 15:18
按此在新窗口浏览图片

 
燕燕hs

回复时间:2020-12-27 15:36
一如既往的细致详细,连检测都有在,辛苦了!谢谢分享




----------------------------------------------
~紫燕娇舞怡情趣 吟风唱完琴音绕 ~

华声论坛 影音帝国 官方QQ群
影视时空|音乐地带 QQ群:140288348 128111319 42933722
音乐快递QQ群:338549863 原声地带QQ群:344590352
高品质单曲QQ群:116060792 心情音乐QQ群:154659931
心情吟诵QQ群:190584521 音乐播放器QQ群:206520165
 
雨水煮茶

回复时间:2020-12-27 15:42
感谢分享

 
乘风追影

回复时间:2020-12-27 16:15
问候云阳老师,抓碟辛苦了,感谢精彩分享

 
乘风追影

回复时间:2020-12-27 16:18
密码怎么不对啊?

 
发新帖 新投票
 回帖
查看积分策略说明快速回复主题
你的用户名: 密码:   免费注册(只要30秒)


启用 Html 代码
使用个人签名
(请您文明上网理性发言!并遵守相关规定
   



Processed in 0.023410 s, 10 q - sitemap,